查看: 528|回复: 10

爵士流行:Sergio Caputo《Pop Jazz And Love》2015/FLAC/BD+115

[复制链接]
 成长值: 19665

6557

主题

1万

帖子

8万

积分

音乐掌门人

Rank: 20Rank: 20Rank: 20Rank: 20Rank: 20

积分
84514

名人勋章社区QQ达人分享勋章精华帖达人灌水勋章

发表于 2015-7-3 10:00:58 | 显示全部楼层 |阅读模式

注册会员,获得无损资源下载地址,享受高品质音乐。

您需要 登录 才可以下载或查看,没有帐号?注册

x
Front.jpg
Front-Rear.jpg
Inside.jpg
Rear.jpg
CD.jpg

Sergio Caputo - Pop Jazz And Love

Жанр: Jazz, Pop, Swing
Носитель: CD
Страна-производитель диска (релиза): Italy
Год издания: 2015
Издатель (лейбл): Alcatraz Moon Italia
Номер по каталогу: 0850233002155
Страна исполнителя (группы): Italy
Аудиокодек: FLAC (*.flac)
Тип рипа: tracks+.cue
Битрейт аудио: lossless
Продолжительность: 39:28.493


Треклист:
01. Everybody Looks So Beautiful In Paris [4:09]

02. Straight For My Heart [4:09]
03. Cristina [3:53]
04. Like [4:21]
05. A bazzicare il lungomare [3:49]
06. Welcome To My Loneliness [4:04]
07. The Way We Were, The Way We Are [3:38]
08. Just A Fallen Angel [3:43]
09. Bachata qué luna [3:43]
10. I Only Wanna Be Myself [3:55]

Exact Audio Copy V1.0 beta 4 from 7. December 2014
EAC extraction logfile from 19. March 2015, 18:18
Sergio Caputo / Pop Jazz and Love
Used drive  : ASUS    BC-12D2HT   Adapter: 1  ID: 0
Read mode               : Secure
Utilize accurate stream : Yes
Defeat audio cache      : Yes
Make use of C2 pointers : No
Read offset correction                      : 6
Overread into Lead-In and Lead-Out          : No
Fill up missing offset samples with silence : Yes
Delete leading and trailing silent blocks   : No
Null samples used in CRC calculations       : Yes
Used interface                              : Installed external ASPI interface
Gap handling                                : Appended to previous track
Used output format              : User Defined Encoder
Selected bitrate                : 1024 kBit/s
Quality                         : High
Add ID3 tag                     : No
Command line compressor         : C:\Program Files (x86)\Exact Audio Copy\FLAC\FLAC.EXE
Additional command line options : -8 -V -T "ARTIST=%artist%" -T "TITLE=%title%" -T "ALBUM=%albumtitle%" -T "DATE=%year%" -T "TRACKNUMBER=%tracknr%" -T "GENRE=%genre%" -T "PERFORMER=%albuminterpret%" -T "COMPOSER=%composer%" %haslyrics%--tag-from-file=LYRICS="%lyricsfile%"%haslyrics% -T "ALBUMARTIST=%albumartist%" -T "DISCNUMBER=%cdnumber%" -T "TOTALDISCS=%totalcds%" -T "TOTALTRACKS=%numtracks%" -T "COMMENT=%comment%" %source% -o %dest%
TOC of the extracted CD
     Track |   Start  |  Length  | Start sector | End sector
    ---------------------------------------------------------
        1  |  0:00.00 |  4:09.15 |         0    |    18689
        2  |  4:09.15 |  4:09.68 |     18690    |    37432
        3  |  8:19.08 |  3:53.65 |     37433    |    54972
        4  | 12:12.73 |  4:21.62 |     54973    |    74609
        5  | 16:34.60 |  3:49.00 |     74610    |    91784
        6  | 20:23.60 |  4:04.39 |     91785    |   110123
        7  | 24:28.24 |  3:38.10 |    110124    |   126483
        8  | 28:06.34 |  3:43.00 |    126484    |   143208
        9  | 31:49.34 |  3:43.23 |    143209    |   159956
       10  | 35:32.57 |  3:55.55 |    159957    |   177636
Track  1
     Filename C:\EAC\01. Sergio Caputo - Everybody looks so beautiful in Paris.wav
     Pre-gap length  0:00:02.00
     Peak level 100.0 %
     Extraction speed 4.3 X
     Track quality 100.0 %
     Test CRC 97D40A6B
     Copy CRC 97D40A6B
     Track not present in AccurateRip database
     Copy OK
Track  2
     Filename C:\EAC\02. Sergio Caputo - Straight for my heart.wav
     Pre-gap length  0:00:02.00
     Peak level 100.0 %
     Extraction speed 4.8 X
     Track quality 100.0 %
     Test CRC D43352F7
     Copy CRC D43352F7
     Track not present in AccurateRip database
     Copy OK
Track  3
     Filename C:\EAC\03. Sergio Caputo - Cristina.wav
     Pre-gap length  0:00:01.98
     Peak level 100.0 %
     Extraction speed 5.2 X
     Track quality 100.0 %
     Test CRC 71C00C1C
     Copy CRC 71C00C1C
     Track not present in AccurateRip database
     Copy OK
Track  4
     Filename C:\EAC\04. Sergio Caputo - Like.wav
     Pre-gap length  0:00:01.98
     Peak level 91.9 %
     Extraction speed 5.7 X
     Track quality 100.0 %
     Test CRC E3A5382D
     Copy CRC E3A5382D
     Track not present in AccurateRip database
     Copy OK
Track  5
     Filename C:\EAC\05. Sergio Caputo - A bazzicare il lungomare.wav
     Pre-gap length  0:00:01.98
     Peak level 93.3 %
     Extraction speed 5.9 X
     Track quality 100.0 %
     Test CRC ACEFC78D
     Copy CRC ACEFC78D
     Track not present in AccurateRip database
     Copy OK
Track  6
     Filename C:\EAC\06. Sergio Caputo - Welcome to my loneliness.wav
     Pre-gap length  0:00:01.98
     Peak level 100.0 %
     Extraction speed 6.3 X
     Track quality 100.0 %
     Test CRC A3A90E35
     Copy CRC A3A90E35
     Track not present in AccurateRip database
     Copy OK
Track  7
     Filename C:\EAC\07. Sergio Caputo - The way we were, the way we are.wav
     Pre-gap length  0:00:01.98
     Peak level 100.0 %
     Extraction speed 5.4 X
     Track quality 99.9 %
     Test CRC 3C392A19
     Copy CRC 3C392A19
     Track not present in AccurateRip database
     Copy OK
Track  8
     Filename C:\EAC\08. Sergio Caputo - Just a fallen angel.wav
     Pre-gap length  0:00:01.98
     Peak level 94.4 %
     Extraction speed 6.7 X
     Track quality 100.0 %
     Test CRC 82811C7A
     Copy CRC 82811C7A
     Track not present in AccurateRip database
     Copy OK
Track  9
     Filename C:\EAC\09. Sergio Caputo - Bachata qué luna.wav
     Pre-gap length  0:00:01.98
     Peak level 99.9 %
     Extraction speed 7.0 X
     Track quality 100.0 %
     Test CRC 73678DD5
     Copy CRC 73678DD5
     Track not present in AccurateRip database
     Copy OK
Track 10
     Filename C:\EAC\10. Sergio Caputo - I only wanna be myself.wav
     Pre-gap length  0:00:01.98
     Peak level 100.0 %
     Extraction speed 6.3 X
     Track quality 99.9 %
     Test CRC D79ABB1A
     Copy CRC D79ABB1A
     Track not present in AccurateRip database
     Copy OK
None of the tracks are present in the AccurateRip database
No errors occurred
End of status report
---- CUETools DB Plugin V2.1.4
[CTDB TOCID: i7Y7AlUTxw9v2RjN8uxj.AYPO5U-] disk not present in database
Submit result: i7Y7AlUTxw9v2RjN8uxj.AYPO5U- has been uploaded
==== Log checksum E120CD15CD4C1C5824AF6F65A6D473CCFF92608B7987037A6FD7BDF418B73E7F ====

==============================
百度下载:
游客,如果您要查看本帖隐藏内容请回复


115下载:
游客,如果您要查看本帖隐藏内容请回复
来自群组: 欧美流行



上一篇:Jason Mraz《67CD 合辑》Albums+EPs+Singles [1999-2014] FLAC/分轨/BD
下一篇:爵士流行:Joanie Sommers《Let's Talk About Love(1962)》 2015/FLAC/BD+115
关于链接失效的说明(度盘+115盘+快传 好友分享的说明)
http://www.cdbao.net/thread-117499-1-1.html     
紧急通告:115,快传等网盘取消了分享功能礼包码链接全部失效
http://www.cdbao.net/thread-122759-1-1.html

2

主题

423

帖子

300

积分

乐坛新星

Rank: 2

积分
300

社区QQ达人

发表于 2015-7-3 15:35:45 | 显示全部楼层
love永恒的主题,感谢楼主分享。。。

0

主题

359

帖子

441

积分

乐坛新星

Rank: 2

积分
441

社区QQ达人

发表于 2015-7-4 10:23:37 | 显示全部楼层
这段时间爵士流行还真多。。

1

主题

55

帖子

-697

积分

恶意回复被扣没分了,积分增加方法见置顶帖

积分
-697

社区QQ达人

发表于 2015-7-4 22:02:43 | 显示全部楼层
本帖最后由 tols 于 2015-7-10 12:51 编辑

希望以后能多提供爵士类的下载!!!!!

0

主题

23

帖子

31

积分

新人会员,请认真回复,若恶意回复,直接封号

Rank: 1

积分
31
发表于 2015-7-5 00:29:39 | 显示全部楼层
感谢楼主分享,专辑很不错,很纯正

0

主题

609

帖子

801

积分

职业歌手

Rank: 3Rank: 3

积分
801
发表于 2015-7-7 16:11:01 | 显示全部楼层
喜欢在这个~~下来仔细听听@!~~很不错的爵士!~~

0

主题

15

帖子

-173

积分

恶意回复被扣没分了,积分增加方法见置顶帖

积分
-173
发表于 2015-7-8 16:57:47 | 显示全部楼层
dxsssaadadasasdsdasdasdsadsadsadasadsadadasd

0

主题

83

帖子

203

积分

乐坛新星

Rank: 2

积分
203
发表于 2015-7-10 17:18:12 | 显示全部楼层
not listen that before, try it out, thanks for sharing ... ...

0

主题

97

帖子

132

积分

新人会员,请认真回复,若恶意回复,直接封号

Rank: 1

积分
132

社区QQ达人

发表于 2015-11-18 14:08:55 | 显示全部楼层
很好听啊,是我喜欢的调调,赞

0

主题

634

帖子

101

积分

禁止访问

积分
101
发表于 2016-1-23 20:15:21 | 显示全部楼层
不知道好不好听,有时间再听吧,先支持了
 成长值: 2280

0

主题

28

帖子

194

积分

VIP3

Rank: 6Rank: 6

积分
194
发表于 2016-6-9 09:43:39 | 显示全部楼层
谢谢分享
您需要登录后才可以回帖 登录 | 注册

本版积分规则

快速回复 返回顶部 返回列表